[ eniksic @ 11.12.2009. 10:07 ] @
Pozdrav,

da li bi neko mogao da mi pomogne da riješim problem sa konvertovanjem video fajla (avi, mpg) u DVD?
Radi se o tome da DVD koji dobijem kao rezultat konvertovanja radi na PC-iju sasvim normalno dok na većini kućnih plejera slika izgleda ovako:



Dakle, na televizoru preko kućnog plejera se može videti samo dio slike koji je ostao u koloru, dok se na PC-iju normalno vidi cijela slika.

Nije ZOOM opcija na televizoru u pitanju, već je slika prosto kropovana.

Problem mi se javio prvi put, probao sam sve kombinacije u programu (letterbox, 4:3,...) , probao sam programe koje do tad nisam koristio,... i ništa...

Ima li neko ideju šta može da bude u pitanju?
[ Stranger2 @ 13.12.2009. 12:54 ] @
Koji program si koristtio?

probaj besplatni DVD Flick http://www.dvdflick.net/
[ despot77 @ 13.12.2009. 14:30 ] @
Potvrđujem da DVDFlick odlično radi svoj posao i DVD-ove koji on napravi mi još nisu pravili slične probleme...
[ eniksic @ 21.12.2009. 08:20 ] @
Evo upravo sam probao DVDFlick. Nije pomoglo...

... ne znam da li je za utjehu to što je sa ovim programom
DVD davao nešto veću zonu slike koja se može vidjeti
na TV aparatu...

... interesantno.

Hvala u svakom slučaju.

Može li mi još neko još nešto preporučiti?
[ Stranger2 @ 23.12.2009. 23:40 ] @
na tom DVD-u koji si snimio imas imas folder VIDEO_TS i u njemu nekoliko fajlova. Pronadji neki od najvecih .VOB fajlova odatle i otvori ih u programu MediaInfo. U njemu nadji prikaz tekstualnih informacija o fajlu pa kopiraj ovde da vidimo kakve informacije ce nam on dati. bez toga mozemo samo nagadjati.
[ eniksic @ 29.12.2009. 11:46 ] @
Evo:


Citat:

General
Complete name : G:\Video\DVD\MyDisc\VIDEO_TS\VTS_01_1.VOB
Format : MPEG-PS
File size : 1 024 MiB
Duration : 1h 30mn
Overall bit rate : 1 574 Kbps

Video
ID : 224 (0xE0)
Format : MPEG Video
Format version : Version 2
Format profile : [email protected]
Format settings, BVOP : No
Format settings, Matrix : Default
Duration : 1h 30mn
Bit rate mode : Variable
Bit rate : 1 287 Kbps
Nominal bit rate : 9 400 Kbps
Width : 720 pixels
Height : 480 pixels
Display aspect ratio : 4:3
Frame rate : 29.970 fps
Standard : PAL
Resolution : 8 bits
Colorimetry : 4:2:0
Scan type : Interlaced
Scan order : Top Field First
Bits/(Pixel*Frame) : 0.124
Stream size : 838 MiB (82%)

Audio
ID : 128 (0x80)
Format : AC-3
Format/Info : Audio Coding 3
Duration : 1h 30mn
Bit rate mode : Constant
Bit rate : 224 Kbps
Channel(s) : 2 channels
Channel positions : L R
Sampling rate : 48.0 KHz
Stream size : 146 MiB (14%)

Menu


[ Goran Mijailovic @ 29.12.2009. 17:54 ] @
Mozes da probas i: WinAVI Video Converter

ALL-IN-ONE solution for video file converting!


http://www.winavi.com

[ Stranger2 @ 30.12.2009. 01:11 ] @
Evo sta je problem:
Citat:
Width : 720 pixels
Height : 480 pixels

Frame rate : 29.970 fps
Standard : PAL


rezolucija 720x480 29,97 fps to nije PAL standard nego NTSC. Greskom je detektovano da je to PAL.
Na racunaru to nema veze ali kod kucnih plejere i televizora ima.

U programu sa kojim pravis DVD uvek mozes bitati izmedju PAL i NTSC varijante. Trebas izabrati PAL jer je to standard i koji se koristi kod nas i u celoj evropi. I onda nece biti problema.

PAL je 720x576 25fps


p.s.

Citat:
Bit rate : 1 287 Kbps

Ovo je strasno mali bitrate za DVD. Prosecno se koristi bitrate od oko 5000-6000 kbps... Bolje namesti na automatic ako koristis DVD Flick.
[ eniksic @ 04.01.2010. 09:08 ] @
E hvala puno. Idem da probam.
[ eniksic @ 26.01.2010. 10:22 ] @

Hvala vam na svesrdnoj pomoći, ali odustajem...